Flac iu

flac iu Label: Fave Entertainment Country:  0MB 달라달라 (dalla dalla) - itzy[flac格式]无损音乐格式百度网盘下载、在线歌词, 无损 IU - Palette [FLAC / WEB] IU - Love Poem [FLAC / 24bit Lossless / WEB]  Credits. IU – CHAT-SHIRE [MQS FLAC 24bit/48khz] Posted 4 years ago June 14, 2016. 이 지금. Disc 2: Love for Meaning – Meaning Of You – Knees 아이유(iu) 앨범 모음 [flac]3. 0 Comments. Travelin’ Men no Theme (トラベリンメンのテーマ) 15. admin May 29, 2020 Music 38 Views. 삐삐 6. 16 comments. (2020) John Gregorius - Full of Life [FLAC] 273M : 08. 95 MB Genre: Dance/Pop Quality: FLAC 16 bit / 44. 100 COPYRIGHT=2007 Lia Rumantscha TITLE=exact PERFORMER=Erwin Ardüser LANGUAGE=rm-sursilvEORGANIZATION=Lia Rumantscha / Conradin Klaiss, 7001 Chur, Switzerland DATE=2007-03-09,LICENSE=Creative Commons Zero v1. She made her acting debut in 2011 and debuted in Japan in 2012. 너랑 나 Comments Off on IU – IU…IM [MQS FLAC 24bit/44,1khz] Hi-Res Digital Download. flac (33. Download the entire concert or single track MP3s from umlive. Archive: RAR Release  IU (아이유) – eight (Prod. 21]. 4M 2016-04-30 · 下载 · 模特FLAC. 7M) 2. 1. 13> xACT (flac level 6) Location Charlotte, NC Source Schoeps mk4 (ortf)> kc5> cmc6xt> Edirol R4 (24/44. . (share) green day - american idiot with non-album tracks (flac) The link features the full American Idiot album in a remastered version with 24-bit/96000 Hz audio (which is a dynamic range restoration that sounds great) along with some bonus tracks from the deluxe version and from the japanese version (Too Much Too Soon, Shoplifter, Governator Quality: FLAC 24 bit / 96 kHz (Tracks) Artist: IU Title: Flower Bookmark 2 Released: 2017 Style: Pop, Jazz, Ballad RAR Size: 520 Mb Quality: FLAC 24 bit / 96 kHz (Tracks) Artist: IU Title: Flower The Rolling Stones Professional Master Series -- Outtakes & Alternates (1960's - 1978) by JFLabs Lineage: Various Silvers & Vinyl Studio Outtakes --> Flac to Wave --> Mastered for CD Audio --> Wave to Flac (Trader's Little Helper) --> Uploaded to you IU Fort Wayne Traditional 01/08/2007 - Fall 2007 *** Fall 2007 *** indicates the course was still an active course and was transferred to the Banner Catalog effective Spring 2008. 1kHz] 1. That said, little is known that the allocation of educational progress naep, and the way in which teachers followed recommended best practices, and perspectives for example many studies on ethnic cultures see e. Genre: Dance Language: Korean Bit Rate: FLAC Tracklist: 01. Meet TheNews Mobile. Wanna One (워너원) - 더힐 - 모래시계 (Prod. unlucky. flac Extracted successfully Conclusion: this track is CDDA with probability 100% Tempfile successfully deleted. 09 Genre: Dance Bit Rate: FLAC Track List: 01. 1 kHz Filename D:\FLAC\Teena Marie - Greatest Hits (Motown) (1985) [FLAC] - It Must Be Magic. 1) Taped by Patrick Moore (pat@taperssection. 李知恩. fLaC" í = Ä@ðcc, Àh-àt°] "Q š Lavf57. 5 MiB); 02. download zip rar mp3 aac m4a flac Jun Maeda x Nagi Yanagi – Kimi to Iu Shinwa/Goodbye Seven Seas Quality: FLAC 16 bit / 44. com) Transferred by Patrick Moore (pat@taperssection. 01]. Quality: FLAC 16 bit / 44. Song. folder_open [2010. html The Lossless Audio Blog is reporting that FLAC lossless audio files can now be played in Next Post: O. Daydream 12 Jun 16, 2020 · FLAC 24 bits/48kHz: MEGA FLAC 16 bits/44kHz: MEGA MP3: MEGA Password: kpopeach. 28MB; 24. 63 GB Release Info Tracklist: Disc 1: Love for Moment – Opening – Unlucky – Palette – Autumn Morning – Friday – Secret Garden FLAC Tag, List all FLAC from Tag FLAC at Keinime. (feat. LOVE ATTACK. 8M) 4. Havana 10. Nov 11, 2019 · Free Music Archive (FMA) is another site with tons of free classical music downloads, to the tune of more than 5,000. 28] (아이유 – 2019 IU Tour Concert in Seoul) ISO / Blu-Ray / 54. 헤이즈). SUGA of BTS) (2020/FLAC 24bit Lossless + MP3/RAR) Released: 2020. 38. First things first – yes, there is a free trial available. SUGA of BTS)) MP3 / 320 / WEB FLAC / 24bit/48Khz / WEB 37. VCR #1 Opening + 분홍신 2. Mshares. (Music file may not be displayed or unavailable to use the app. 83. Walk With Me, Girl 09. rar, free IU - Kkot-Galpi #2 A Flower Bookmark (FLAC 24 Bits). QUOTE: IU – Love Poem Released: 2019. net. 4. 삐에로는우릴보고웃지Pierrot  If you are not sure what to download, see Using FLAC for instructions and guides on playing FLAC files, ripping CDs to FLAC, etc. "IU - 에잇 (eight) ft. Blueming *Title 04. We would like to hear your opinion about features that you would like to see in mobile version of the player. If popularity was a crime, IU would be an assassin. 5/5, 1 vote. m3u 343 B IU - Love Poem/1. 年少有为FLAC. SUGA of BTS)(无损). Anniversary. 잼잼 06. Koubou (光芒) 14. aiff, . 그 사람. mkv: 576. net or download our mobile music app IU Love Poem FLAC 24bit 토렌트 torrent. 18 Genre: Rock/Metal Language: Korean Track List: 01. 18/ FLAC 24bit Lossless + MP3/RAR) 簡単無料 ダウンロード zip rar 漫画 MP3 FLAC 24bit Lossless AAC  2014년 4월 29일 성시경(Sung Si Kyung) - 그대네요(It's You) Release Date: 2010. (2013. 100 TITLE=ischiu COPYRIGHT=2007 Lia Rumantscha PERFORMER=Erwin Ardüser LANGUAGE=rm-sursilvEORGANIZATION=Lia Rumantscha / Conradin Klaiss, 7001 Chur, Switzerland DATE=2007-03-09,LICENSE=Creative Commons Zero v1. 22] Kana Hanazawa – claire [FLAC + MP3] [2013. flac" WAVE INDEX 01 00:00:00 1. 느리게 하는 일 3. VCR#3 Fake Documentary + 스물셋 5. 12. - Represent. unlucky 02. This comment has been minimized. 14 Gb Quality: FLAC 16 bit / 44. Hollow 3. Boramiyu Korea Lossless MP3. 6 - 다섯째 손가락/다섯째 손가락. If you’re not sure if you want to start paying after your trial finishes, then set yourself a reminder to cancel your subscription before the trial ends. (2010. July 17, 2015 at 10:11 PM Public Aug 05, 2012 · Why FLAC isn’t awesome (read: it’s not because it “sounds better”). It's also not as widely supported in devices as compared with MP3s 아이유(IU) - IUIM[flac] 3,201회 조회 | 2018-04-30 아이유(IU) - Real+ 3,191회 조회 | 2018-04-30 아이유(IU) - 기다리다. SNSD debuted in 2007, … AIMP : Free Audio Player : Официальный сайт программы. flac - ogg version 9_8_08 - Evening on IU Campus Near Student Building. [Mini Album] IU - Real [FLAC] - 아이유(IU) – Real Release Date: 2010. Jul 25, 2020 · IU - eight [FLAC] YOASOBI - Yoru ni Kakeru [FLAC] BTS - MAP OF THE SOUL : 7 [FLAC] GFRIEND - 回:Song of the Sirens [FLAC] BLACKPINK - How You Like That [FLAC] Quality: FLAC 24 bit / 96 kHz (Tracks) Artist: fripSide Title: the very best of fripSide -moving ballads- Released: 2020 Style: Electronic, Pop, Dance RAR Size: 5. 24 GB 2019 marks the 60th year of MOTOWN, widely regarded as the greatest, most successful and best loved record label in music and to commemorate this landmark anniversary Motown will be issuing a brand new Greatest Hits compilation Motown: The Ultimate fLaC" e ­ Ä@ð c˜| ‚T Î -‘®kÜ aø Lavf57. Sen 4. Jun Maeda×Yanaginagi – Kimi to Iu Shinwa Dec 09, 2019 · Welcome to YesAsia. 누구나 비밀은 있다 (Feat. 09. 4M) 5. Voices 2020 1080p WEB-DL DD5. cr MP3: MEGA Mir. org FAQ. flac 26. 93> Soundforge 6> FLAC Location Monroe, North Carolina Shndiscs 1 Source Nachimichi CM300's (CP1 Caps, DIN pattern, onstage DFC, 4' high)> Line Mixer> JB3 (wav, 44. 36 MB IU - Love Poem/2. Enjoy the full SoundCloud experience with our free app. 71g 토렌트 다운로드. Blu-ray ISO. 1> CDWave> flac(24/96) Location Birmingham, AL Source [24bit] Schoeps mk4v> KCY> VST62IU> Lunatec V2> SD 744t (@24bit/96kHz) Taped by Taylor Caine Transferred by taylorc Type sound Venue Zydeco Year 2011 fLaC" æ Ä@ðccㆽȆ ^š¢³ô { p Lavf57. Looking for the Korean Singler IU and any of her albums. flac 🎨 280 handpicked colors. 99, Flac 96kHz/24bit. Join us today for the ultimate listening experience! 说明:《iu 李知恩 - palette [hi-res 24bit-96khz] - 2017 flac》是网友分享的百度云网盘下载链接本站并不保存该资源,您可以下载文件到电脑或者保存到自己的百度云盘账号,建议打开文件前先进行杀毒。 Etiquetas: 2011 4shared Bakuman ED Ending 2 flac Fukuwarai Genjitsu to iu na no kaibutsu to tatakau-sha-tachi mega mp3 single Yuu Takahashi 現実という名の怪物と戦う者たち 福笑い 高橋優 좋은 자료에는 "좋아요!" / 광고, 불량 자료는 "별로에요"를 눌러주세요! 비회원도 가능! 253. flac. 667267 아이유 (IU) - 밤편지. Concert. Jessica left the group in 2014. 123. 다음 받는 분들을 위해서 배포 유지해 주세요. flac (20. Read Designer News, Hacker News, Dribbble, TechCrunch, GitHub, Product Hunt, Reddit and many more on the go. 2019년 12월 25일 File : 아이유(IU) - Blueming Live Clip. 李荣浩29. flac》是网友分享的百度云网盘下载链接本站并不保存该资源,您可以下载文件到电脑或者保存到自己的百度云盘账号,建议打开文件前先进行杀毒。感谢您对【yunpangou. Into the I-LAND MV (03:38) DOWNLOAD From : Rapidgator, Uploaded, Katfile, Mexashare, FILE "09 - Hana ga Chiru Toki. 2 MB 03. wma). This blog is for preview purposes only and all music downloaded shou IU – 2013 – Can You Hear Me [FLAC] 01 – Beautiful Dancer. Signal. Love poem. dlwlrma. flac (30. Cute as a button with the talent to match, popular singer IU keeps it Real with her third mini-album. 2018-10-16T11:04:20Z Comment by MusicLover Sep 18, 2020 · Depthscape by Iu Takahashi, released 18 September 2020 1. 18. mp3 3,179회 조회 | 2018-04-30 아이유(IU) - Growing up[flac] 3,403회 조회 | 2018-04-30 아이유(IU) - 전집. Tags: IU. com/106680/iu-good-day-download-flac-mp3. Heart of the Wonder Girls Members Profile: Wonder Girls Facts, Wonder Girls Ideal Types Wonder Girls (원더걸스) consists of 4 members. flac (71. SUGA of BTS) - Single Released: 2020-05-06. 7 MiB) 04 – Voice-Mail. com) Type sound Venue Tremont Music Hall Year 2007 Girls’ Generation Members Profile: Girls’ Generation Facts, Girls’ Generation Ideal Types SNSD (Girl’s Generation) consists of Taeyeon, Yuri, Hyoyeon, Sunny, Yoona, Tiffany, Sooyoung, and Seohyun. flac Lineage R4> usb> Peak 4. Emoji IU - Palette [FLAC / WEB] IU - Love Poem IU Love Poem FLAC 24bit 토렌트 torrent. Korea Lossless MP3 OST. , . IU自《Palette》後超過兩年半的原創專輯, 迷你五輯的  The latest Tweets from IUmushimushi (semi-hiatus) (@IUmushimushi): " Congratulations to #아이유 #IU for winning #2020MAMA Best Female Artist Best Vocal  2018년 12월 21일 IU – Palette [MQS FLAC 24bit/96khz]. seagullinflatables. Modern Times 06. Category: Funk / Soul. 7 degrees Fahrenheit because that is the “best temperature. Bad Day 07. flac ~ 36. net helps you to store and share unlimited files, with very high download speeds Sep 23, 2008 · menu Jialezi chevron_right / chevron_right music chevron_right IU专辑合集 chevron_right [2008. 91 dB REM REPLAYGAIN_TRACK_PEAK 0. 14 Gb Jan 20, 2020 · Comments Off on IU – Love Poem [FLAC 24bit/96kHz] IU – Love Poem [FLAC 24bit/96kHz] Posted by mqs / Posted 10 months ago January 20, 2020. 02. flac (51. 2020년 인기음원 모음 409곡 [무손실 FLAC], 싹쓰리 (유두래곤 & 린다G & 비룡) - 여름 안에서 (Feat 황광희) - utoranking. 0 mL solution for injection in pre-filled syringe 2 days ago · [Album] DJ Okawari – Perfect Blue [FLAC / 24bit Lossless / WEB] [2018. SNSD debuted in 2007, … Jun 17, 2020 · Folate is the natural form of a B vitamin—the synthetic version is known as folic acid. * Ektoplazm is a source for awesome quality electronic music. nz/#!bLhG2CAA! sqQrTE0gQ0HOTYLfVIHhLTfxZAvE8t7OGN0HhCt9IBI IU Love Poem FLAC 24bit IU Love Poem FLAC  IU – Love Poem (2019) [mp3+FLAC]. me. Warui Yume (わるいゆめ) 12. it Flac3d FLAC Tag, List all FLAC from Tag FLAC at Keinime. it must be done. the accountant. 1 kHz (Tracks) Performer: IU Title: Modern Times Published: 2013 Genre: K-Pop, Jazz, Boss Nova, Swing RAR Size: 361 Mb Tracklist: 01. Title in English : Spring of a Twenty Year Old Tracklist in English : 1. com is the number one paste tool since 2002. ) Discover IUPUI, a thriving university in downtown Indianapolis offering the best of Indiana University and Purdue University on one centrally located campus. 2 -===- L:\Music\Lossless\Anime\Yojouhan Shinwa Taikei\Yojouhan Shinwa Taikei ED Single - Kami-sama no Iu Toori\02 - Kami-sama no Iu Toori (Version Z80). 마침표 08. 11 Released: 2020. Foggy 2. Jun 14, 2016 · IU – 꽃갈피 花書籤 [MQS FLAC 24bit/96khz] Posted by mqs / Posted 4 years ago June 14, 2016. SUGA (English Translation)" Track Info Release Bach-Collegium Stuttgart, Gächinger Kantorei, Indiana University Chamber Singers, Württembergisches Kammerorchester, Helmuth Rilling FLAC (CD quality, 44. IU (아이유) – BBIBBI (2018) [FLAC 24bit/96kHz] Posted 2 years ago December 21, 2018 IU - eight [FLAC] TWICE - MORE & MORE [FLAC] GFRIEND - 回:Song of the Sirens [FLAC] YOASOBI - Yoru ni Kakeru [FLAC] IZ*ONE - Oneiric Diary [FLAC] Free Movies Download. On January 27, 2017, it was officially announced the disband of Wonder Girls. ” Jul 26, 2020 · IU - eight [FLAC] YOASOBI - Yoru ni Kakeru [FLAC] BTS - MAP OF THE SOUL : 7 [FLAC] BLACKPINK - How You Like That [FLAC] GFRIEND - 回:Song of the Sirens [FLAC] Photo of IU - [Kkot-Galpi 2] : A flower bookmark for fans of IU 40728669 IU (아이유) - Love poem Release Date: 2019. IU is a 26-year-old South Korean Pop Singer from Seoul, South Korea. Siberian Khatru [03:55] 03. 6(Telecinema Project Vol. 4 - Koizumi Itsuki\01 'Tsumaranai Hanashi desu yo' to Boku ha Iu. 100 COPYRIGHT=2007 Lia Rumantscha TITLE=quei PERFORMER=Erwin Ardüser LANGUAGE=rm-sursilvEORGANIZATION=Lia Maurice Hinson & Wesley Roberts; Indiana University Press; Paperback This revised and expanded edition is a compendium of information gleaned from a combined century of piano teaching. IZ*ONE Korea. 1. 기차를 타고 아이유(iu) 앨범 모음 [flac+mp3] 용량: 10. Do you want to convert a WAV file to a MP4 file ? Don't download software - use Zamzar to convert it for free online. 单曲. 가을 아침 (3:39) 02. IU Love Poem FLAC 24bit 토렌트 torrent. 04. 07 Gb Nov 27, 2018 · IU showcased her soaring vocal register in the rousing ballad, her emotive singing expressing the bittersweet feelings of an unconfessed love. [SHARE] IU - eight (ft. Popular Posts IU - eight [FLAC] YOASOBI Jun 19, 2020 · IU - Into the I-LAND (Romanized) Lyrics: I got pushed tteomillyeo wasseo / Oraedo chaja hemaen kkumui mun ape / Nae ane geu jageun noraega / Jageun noraega nal yeogi deryeowasseo / Oerowodo gidael I don't own this song. insizemade. 15 Genre: Ballad Track List: 01 Jun 18, 2019 · [1080p] IU – 10Year Anniversary Tour Concert dlwlrma [2019] (아이유 – 10주년 투어 콘서트 이지금) IU. Tour. May 10, 2020. 5M) 254. Thanks. SUGA of BTS) [FLAC 24bit + MP3 320 / WEB] · 아이유 - Crash Landing on You OST Part. save hide report. Vocals – IU. Nov 09, 2020 · download zip rar mp3 aac m4a flac ASCA - Howling Artist & Title: ASCA - Howling File Format: November 5, 2020 JpopSingles Jun Maeda x Nagi Yanagi - Kimi to Iu Shinwa/Goodbye Seven Seas. 12K views. 100 TITLE=casa COPYRIGHT=2007 Lia Rumantscha PERFORMER=Erwin Ardüser LANGUAGE=rm-sursilvEORGANIZATION=Lia Rumantscha / Conradin Klaiss, 7001 Chur, Switzerland DATE=2007-03-09,LICENSE=Creative Commons Zero v1. Ten Iu Takahashi - Depthscape [RTE017] Music for the landscape that emerges deep down in your heart. 01 Genre: Ballad Language: Korean Bit Rate: MP3-320kbps File: IU - Love poem (MP3). If you're experiencing any issues or have questions, contact us via Twitter (do follow) or send us an Email. 이게 아닌데 02. 板野友美 – すき。ということ Released: 2019 Genre: Pop Bitrate: FLAC *. flac Location Charlotte, NC Source Nakamichi Cm300 (active mod)/cp1 (ORTF, onstage, 2' LoC, 3' high)> Edirol UA-5> usb> Apple ibook g4> Audacity 1. net helps you to store and share unlimited files, with very high download speeds Download Anime Soundtrack (OST) with FLAC format. 1 kHz (Tracks) / FLAC 24 bit / 96 kHz (Tracks) Artist: IU Title: Modern Times - Epilogue Released: 2013 Style: Jazz Pop, Vocal Jazz, Swing, Ballad RAR Size: 406 Mb / 1. I-LAND. Total length: 4:18. Artist : 아이유 (IU). Tiffany, Sooyoung, and Seohyun left S. Collaborating with 13 designers around the world, a total set of 280 colors are on your command for COPY / PASTE for your next project, design, presentation. flac" WAVE INDEX 01 00:00:00 TRACK 10 AUDIO TITLE "Kanashimi to Iu Eki" ISRC JPSR07303320 REM REPLAYGAIN_TRACK_GAIN -1. Song: Another Day In Paradise Album: But Seriously Year: 1989 Artist: Phil Collins High Quality - Quality FLAC Lee Ji Eun (아이유) - Real Cute as a button with the talent to match, popular singer IU keeps it Real with her third mini-album. - Lead Pipe (1994) (CD) (FLAC + 320 kbps) 01 Represent 02 As I Flow On 03 We Got Da Gats 04 I Can Do That 05 Don’t Stress Me 06 Da Real Mack Maurice Hinson & Wesley Roberts; Indiana University Press; Paperback This revised and expanded edition is a compendium of information gleaned from a combined century of piano teaching. I am having trouble tagging these flac files. Written and composed by Kim Yi Na and Lee Min Soo, the upbeat main track "Good Day" complements IU's powerful voice with a funky arrangement of guitar, piano, violin, and brass. flac Download IU - Kkot-Galpi #2 A Flower Bookmark (FLAC 24 Bits). Love poem (4:18). The 2020 is ending, and soon we will make a plans for the next one. 바라보기 9 Sep 2017 Zippyshare, Torrent, Mega, Mediafire, Google Drive IU - Love Poem - EP (2019) Download Album 320 kbps zip mp3 Zippyshare flac m4a. flac TITLE "Fushiawase to Iu na no Neko" ISRC JPTO09044010 REM REPLAYGAIN_TRACK_GAIN 0. 아이유(iu) 앨범 모음 [flac+mp3] Apr 25, 2018 · Aoi Yuki - Kaeru Basho ga Aru to Iu Koto (Single) Piano no Mori EDfree download anime music ost opening ending full version gratis japanese music single album bukan fansub tempat download anime ost terlengkap 아이유 IU – Palette [FLAC]아이유(IU) – PaletteReleased: 21 April 2017Genre: Pop, Soul, BalladBitrate: FLAC Tracklist: 1. fLaC" Ž Å Ä@ð•`÷îèè’¯ ¬¦ ‡þ±Ç[u„E reference libFLAC 1. The two are known to have been good friends, and IU previously revealed she wrote her 2012 track Interim Director of the IU Center for Bioethics; Associate Professor of Medicine at IU School of Medicine; Director of the Bioethics and Subject Advocacy Program of the Indiana Clinical and Translational Sciences Institute (CTSI) Email: phschwar@iupui. 27 Rina Hashimoto, Riho Yoshioka, Mina Oba, Mio Kudo & others 154 views The only reason I can think of for using WAV instead of FLAC is device compatibility. 1080p. 비밀의 화원 (3:45) Comments Off on IU – Love Poem [FLAC 24bit/96kHz] Hi-Res Digital Download. share. flac ~ 37. flac - spectrogram 373702. 11  [Single] IU – eight 에잇(Prod. Discussion in ' Albums (lossless)' started by UHD4K, May 28, 2018. 24]IU - 텔레시네마 프로젝트 Vol. 느리게 하는 일 03. the Red Shoes 05. Ore to Omae no Atarashii Kisetsu (オレとオマエの新しい季節) 16. flac (25. 24) 텔레시네마 프로젝트 Vol. Blueming. 0. 0 [Mini Album] IU - Can You Hear Me (Japanese) [FLAC], 06 - The Age of the Cathedrals. Download anime Soundtrack (OST), download other anime music Album/Single with various formats such as MP3, AAC, FLAC, WAV, Hi-Res, Lossy and Lossles Compression only at Re:OST 24 bit / 96 kHz Hi-Resolution Free FLAC. Artist & Title (Org. 1 khz, 16 bit) Taped by Patrick Moore (pat@taperssection. 10. She debuted in 2008 with her first Single and a few days later she released her first mini album. 01 Gb Quality: FLAC 24 bit / 96 kHz Get all 163 OMOIDE LABEL releases available on Bandcamp and save 85%. Download A - Z Japanese FLAC musics, opening ending anime FLAC . Bluray. May 06, 2020 · [Single] IU – eight [2020. Mar 04, 2005 · 37iu-2005-03-04. 20] The highest quality of audio that you can download is flac. 01. Listen to live concerts at nugs. 麻枝准 x やなぎなぎ – 君という神話/Goodbye Seven Seas . 100 ÿøY ~ÿÿ 280 handpicked colors ready for COPY & PASTE. 100 ÿøY Q”!\Fi2P™%P¾2‡ù$Ì ‹ j³Ôçîò0Ÿ— ÚÙ×É œ]ÅPÚ S3Q² ¸Ùc£ âEZÝ««êüù Total download size: 472MB Total play length: 43:22. 2020년 4월 2일 FLAC [Hi-Res] IU - Palette (2017) [24bit/96khz] (NEW LINK). mkv [국내앨범] 아이유(iu) 앨범 모음 [flac+mp3] 목록 등록일: 2017-02-10 06:43:31 . 19] Style: Dance Release date: 2020. The band debuted in early 2007, under JYP Entertainment. Flac iu Flac iu (IU) Modern Times Epilogue [Vol. 29 May 2020  IU – Love Poem [FLAC / 24bit Lossless / WEB] [2019. 0 20130526 ARTIST=Jynus DATE=2016ÿøÉ •Hÿùÿòÿóÿøÿû¶1ÉÇ ð` 0fY p¬ jôߎ…â”@‚ (å…Ž Iš« `O ÚJ⸠6ƒI0š‘JÞ9¬ß!,è E>XW¤ ÿ ™P¡ YÖp[eÐŽíÆ ¼UNbX0€ ŽòªæŠV :’ç 4¢$¼f>¦ o KȽøûÍ%þmÑ"Ü9»Æ ¢eL]‚ µ!üÖí—t¥5´ ‡B™:Áë ñ =Ú¾–TŸ\ñ May 06, 2020 · The track was written and produced by IU, Suga, and EL CAPITXN, all born in 1993, making them 28 years old (Korean age). Jul 17, 2015 · [DOWNLOAD] IU's Complete Discography 2008- July 2015. 0 Universal encoder=Lavf57. 6 GiB: Mine Fujiko to Iu Onna [BDRip 1920x1080 x264 Hi10P FLAC] 2 days ago · [Album] DJ Okawari – Perfect Blue [FLAC / 24bit Lossless / WEB] [2018. Flat UI Colors 2 features 13 more color palettes. A. 10-03-2018 05:23 AM by Motley Crue 1986-02-25 Lund, Sweden FLAC/AUD (1st GEN) (2019 Transfer) Indiana University, Bloomington, IN; May 17, 1970. 3 Repackage] Release Date: 2013. Between the Lips 04. com】的支持,本站专业提供百度云网盘资源搜索服务。 (OST/Soundtrack) Песня Боевых Принцесс - Мехасимфония / Senki Zesshou Symphogear / Senki Zesshou Symphogear G / Senki Zesshou Symphogear GX - 2012-2016 г. Germany FLAC/AUD "Belle de Cologne" mediaaddict. Notes. We only index and link to content provided on other servers. Includes unlimited streaming via the free Bandcamp app, plus high-quality downloads of Repetition, ABASEMENT TRACKS, OMOIDE 214, Parnara guttata, Shimoda Lively Drive, Just kinda little things EP, Parallel Sunset EP, fictional simulated memories EP, and 155 more. flac-歌词 - 无损音乐 wsyyb. xyz. 자장가. 1) Taped by Patrick Moore (direwolf207@hotmail. Title : Blueming Live Clip. mkv [ReinForce] Shimoneta – 12 (BDRip 1920×1080 x264 FLAC). 100 ÿøY cñA RúœmœyÓEXžÖM *IÖ+· a4' _RºŽ”uJâx¾+ΡZFÙCèBèvÔ Ò̽œ¸D£å J Download type: Free: Premium: Download speed: Limited: Unlimited: Maximum parallel downloads: 1: Unlimited: Download restriction: 1 file per 120 minutes: NO: Direct Aug 12, 2007 · 37iu2007-08-12. [BLURAY] IU – 2019 ‘Love, poem’ Concert in Seoul [2020. 용량: 3. 6. CONTENT B’z – Action. 19 Total length: 03:38 Label: EDAM엔터테인먼트 Distributor: Kakao M Tracklist 01. edu Jan 11, 2009 · 10. Users will find helpful and clear definitions of musical and pianistic terms and performance directions, as well as information on composers, pianists, famous Oct 15, 2019 · IU has postponed the release of her mini album 'Love Poem' following the news of Sulli's passing. 시간의 바깥. Obliviate 08. 06. Asir 2020-06-19 18:13:00 1615  [Lyrics]아이유(IU) - 친구야 친구(너다워 고마워) My Dear Friend (Thank You For Being You)가사[FLAC High-Res from CD]. Love for Message – The Visitor – Red Queen – Jam Jam – Twenty Three – BBIBBI – Hold my hand – Blueming. 2kHz | Stereo & Multichannel 아이유(iu) 앨범 모음 [flac]3. 그렇게 사랑은 __Spectrogram__ ![] [Hi-Res] IU - Palette (2017) [24bit/96kHz]. 10/MP3/RAR) [Album]MINMI – Shin MINMI FRIENDS ~”BAD” “MINMI” to Iu Neta wo Rapper, Track Maker ga Dou Ryouri Sh… That flac bug is known since some months, I even told you when we still were on older gcc - please for the future: do compiler updates when the 2nd dot release is out. Eien no Tsubasa (永遠の翼) 17. flac (87. 08. Originally formed a dozen years ago while students together at Indiana University, the a cappella group has reassembled and reemerged after their video for 'The 12 Days of Christmas' became a phenomenon with almost 8 million views on YouTube. 0 X264-Solar The Foreign Language and Area Studies (FLAS) fellowships are funded by the United States Department of Education in support of graduate and undergraduate students studying less commonly taught languages and cultures, in particular, those considered to be of critical interest to the United States. g. Buddy. – Bloomington IU Auditorium (2006-02-20)  5 Nov 2020 FLAC 01. eight (feat. 2009년 4월 23일 아이유(IU) - Growing Up (1집 Growing Up) Release Date: 2009. SUGA) [24-bit/48kHz] FLAC, 16 or 24bit. 2. VCR #2 Cinema + 입술 사이 (50cm) 3. Everybody Has Secrets 03. 李荣浩33. net helps you to store and share unlimited files, with very high download speeds Flac3d - eb. Part. flac (52. mkv 2) How the units are fixed during manufacturing (Lot to Lot) for respective product e. 그 사람 03. [REQUEST] IU (Korean) Any album (FLAC and higher). 인기자료 Sep 17, 2019 · The Byrds - 1970-05-17 - Bloomington, IN (Audience FLAC) Memorial Stadium, Indiana University, Daytime Concert Lineage Aud Master > 4Th Gen Reel > Edirol Usb Ua-1Ex Audio Interface > Cool Edit > Cd Wave Editor > Traders Little Helper > Flac Dec 11, 2019 · FLAC 16 bits/44kHz: MEGA Mir. 14 Gb Tracklist: 01. 88 dB REM REPLAYGAIN_TRACK_PEAK 0. 2017년 4월 21일 [Album] IU – Palette [FLAC / 24bit Lossless / WEB] [2017. G-DRAGON). Genre : Rock. 자장가 06. Peach 2. 7 MB 02. com】的支持,本站专业提供百度云网盘资源搜索服务。 Aug 06, 2011 · Yes - 1979-04-10 - Bloomington, IN (FLAC - Rare) Venue: Indiana University Assembly Hall Very Good Broadcast Lineage: Unknown gen cassette > CD> EAC> WAV> FLAC Yes Line up: Jon Anderson Steve Howe Chris Squire Rick Wakeman Alan White Tormato Tour (c) 01. 艺人:IU 语种:韩语 唱片公司:㈜ 카카오 M 发行时间:2020年05月06日 专辑类别:EP、单曲 2019年11月23日 [Album] IU – Love Poem (2019. Pastebin is a website where you can store text online for a set period of time. Nov 01, 2019 · [Single] LiSA – 炎 [FLAC 24bit + MP3 320 / WEB] 200 views Recent Posts [MUSIC VIDEO] CHiCO with HoneyWorks – 瞬く世界にiを揺らせ 付属DVD (2020. Select processing model, drop a song and enter your email to get notified. 22) (BDISO) Download for free and listen K-Pop music and songs online for free on Myzcloud. Nov 03, 2019 · IU’s pre-release track “Love Poem” has achieved a perfect all-kill on the charts! A song receives a “perfect all-kill” when it is No. com/intune-push-h1bo9/yx964---jazz-flac-blog---4zvsn. 07. flac Lineage JB3> USB> CD Wav 1. flac" WAVE INDEX 01 00:00:00 TRACK 03 AUDIO TITLE "Sabishisa ni ha Namae ga Nai" ISRC JPTO09044020 REM REPLAYGAIN_TRACK_GAIN -0. Every End of the Day 3. Only Yubin and Lim have renewed their contracts with JYP Entertainment. Audacity also does not support Ogg Vorbis, Speex, or FLAC formats. 5. Nov 05, 2020 · Jun Maeda x Nagi Yanagi – Kimi to Iu Shinwa/Goodbye Seven Seas. 목록. 이 지금2. 꽃Flower, IU, 2:59, $0. 08][Album]. 8224MHz | FLAC Tracks / 24bit / 88. 24 bit / 96 kHz Hi-Resolution Free FLAC IU Technology Statewide 08/22/2005 - Fall 2007 *** MUS A190 - Exploring Musical Composition: IU Technology Statewide 01/09/2006 - Fall 2007 *** MUS A301 - Elec Studio Resource I: IU Technology Statewide 01/09/1999 - 05/04/2003: MUS B128 - Voice IU is a South Korean Solo Singer, Songwriter and actresses. Save. 팔레트 Palette (Feat. Hometown Boys’ March 13. 0x2)(Dual Audio)[sxales] Artist: IU Title: Flower Bookmark 2 Year Of Release: 2017 Label: Groovers Inc Genre: Pop, Jazz, Ballad Quality: FLAC (tracks) / FLAC (tracks) 24bit-96kHz Total Time: 25:06 Total Size: 149 / 494 Mb WebSite: Album Preview Jun 28, 2019 · [Album] 鬼束ちひろ (Chihiro Onitsuka) – HYSTERIA [FLAC 24bit / WEB] Popular Posts Weekly [Cosplay] Nikumikyo きょう肉肉 Nikumikyo Vol. 792725 INDEX 00 03:18:20 FILE "02 - Fushiawase to Iu na no Neko. flac (55. 2013년 12월 4일 (Download)(DVDISO+FLAC) IU – Modern Times [2013. rar, free IU - CHAT-SHIRE (FLAC 24 Bits). , reading books are published in portuguese in 1964 Artist: HINATAAYA Title: haiiro no machi ni sumau to iu koto Year Of Release: 2020 Label: hinataya Record Genre: Indie Folk, Acoustic, Singer-Songwriter Quality: 320 / FLAC (tracks+cue,log) Total Time: 34:29 Total Size: 80 / 213 Mb Jun 01, 2006 · 37iu2006-06-01. May 11, 2020 · Posted in SINGLE, J-Music Tagged BoA, Flac, I believe, single, 보아 Post navigation Previous post Jun Maeda x Nagi Yanagi Kimi to Iu Shinwa/Goodbye Seven Seas See full list on itascacg. com/flac/41117. 01 Gb Quality: FLAC 24 bit / 96 kHz Quality: FLAC 24 bit / 96 kHz (Tracks) Artist: IU Title: Flower Bookmark 2 Released: 2017 Style: Pop, Jazz, Ballad RAR Size: 520 Mb Quality: FLAC 24 bit / 96 kHz (Tracks) Artist: IU Title: Flower Download IU - CHAT-SHIRE (FLAC 24 Bits). Nov 19, 2019 · IU – Flower Bookmark 2 [FLAC 24bit + MP3] [2017. 1 Signal Song [FLAC / WEB] [2020. 06] (아이유 – 에잇(Prod. html 2020年5月6日 IU全新数字单曲《에잇(eight)》,本次数字单曲是乐队基调的Pop Rock歌曲,原始 感性与流行旋律完美融合,将同为28岁的同龄音乐人IU与防弹  Android 11(One UI 3) Upgarde - Samsung Music app needs to be updated to the latest version. 无损歌曲列表(陆续收集中). html D3 Vita +, D3 ვიტამინი 2000 IU, პროლონგირებული Nasal drops 0,5mg/1ml, 10ml flac №1; Nasal drops 1 mg/1ml, 10mlin flac №1  2020년 7월 1일 歌曲:IU《IntotheI-LAND》专辑:《I-LANDPart. This section is for the official  2018년 7월 9일 사랑이 잘 05. 9 MiB); 03. edu For both of which constitute the media social on titles essay academic writing for the conjunction deleted, or an- other feel. 11: VA - Greatest Hits Of The Millennium 80's 1. 9_8_08 - Evening on IU Campus Near Student Building. 10-06-2019 05:00 PM For both of which constitute the media social on titles essay academic writing for the conjunction deleted, or an- other feel. 31] [Album] 翔音~ボクノスベテ~ (2015. Daydream 12 Looking for catchy & soothing colors to use in your professional design project? We've created a color palette of extremely popular Flat UI Colors to quickly grab color codes. Tracklist 1. 21] Label: Fave Entertainment Country: South Korea Year: 2017-04-21 Release Type: Album Tracklist 1. × Close Download IU - Palette (FLAC 24 Bits). Post a Comment. Click to convert your WAV file now. 38g 토렌트 다운로드. I Really Don't Like Her  Jazz flac blog - Seagull Inflatables www. ★★★ IU (이지은) สาวน้อยมหัศจรรย์ ★★★ FLAC [24bit/44. 그대네요(With 아이유/IU) 02. Hey guys, IU have a question about flac files. Goodbye Seven Seas. Essential data is lost when you listen to music via MP3 files because of the lossy compression that makes these files smaller. You may like these posts. 시간의 바깥 05. IU - eight [FLAC]. 28. 1 – Vol. 아이유 - Crash Landing on You OST Part. flac 25. Release : 2019. In this video, I show you how to download music online for free. rar download online. 팔레트 (Feat. 24 bit / 96 kHz Hi-Resolution Free FLAC. 1SignalSong》歌词:作曲: Wonderkid,MelanieJoyFontana,Michel“Lindgren”Schulz  IU《INTO THE I-LAND》[FLAC/MP3-320K]. zip 3,318회 조회 | 2018-04-30 아이유(IU) - 전집 3,354회 조회 | 2018-04-30 아이유(IU) 3,160회 조회 | 2018-04-30 아이유 Oct 01, 2009 · Download Umphrey's McGee October 1, 2009, IU Auditorium, Bloomington, IN MP3 and FLAC. 2020年5月7日 音乐全集打包演唱歌手:IU李知恩整理日期:2008-2020 来自地区:韩国专辑 类型:流行音乐合集音乐格式:高品质MP3免费下载+无损FLAC  IU SUGA - 에잇(Prod. 이 Nov 11, 2019 · Free Music Archive (FMA) is another site with tons of free classical music downloads, to the tune of more than 5,000. 3. flac 52. cr Password: kpopeach. Genre: Ballad Bit Rate: FLAC Track List: 01. Replay time : 00 : 04 : 39. 아티스트 아이유 (IU) 레이블 ㈜페이브 엔터테인먼트 유통사 ㈜로엔엔터테인먼트 발매일 2017-04-21 장르  2019年11月1日 아이유- Love poem Release Date: 2019. Of History) [See You Friday] Hi-res audio blows MP3s and AAC files out of the water. 00 | 3:55. flac, *. IU Love Poem FLAC 24bit https://mega. 아이유(iu) 앨범 모음 [flac+mp3] 용량: 10. ): 아이유 – Crash Landing on You OST Part. 미아 + VCR 4. We are the number one online shopping website for Asian entertainment products covering Asian movies and videos, Japanese, Korean, and Chinese movies, TV dramas, Asian music, books, comics, games, electronics, and more! 说明:《李知恩《꽃갈피 花书签》2014 . 11 [FLAC] February 23, 2020. 32MB; 17. Audio: FLAC 16 bit / 44. mp3), not proprietary formats like Microsoft's Windows Media format (. Grand Daddy I. Entertainment on 9 October 2017 but for now, their departure from SNSD wasn’t confirmed. Type: Cassette   2020年6月22日 【FLAC】IU. -. flac ~ 42. The easy-to-use software can help you free convert all Bob Dylan -Bloomington, Indiana University Of Indiana Assembly Hall; February 3, 1974. nz/#!bLhG2CAA!sqQrTE0gQ0HOTYLfVIHhLTfxZAvE8t7OGN0HhCt9IBI IU Love Poem FLAC 24bit FLAC 16 bits/44kHz: MEGA MP3: MEGA. mkv [ReinForce] Shimoneta – 11 (BDRip 1920×1080 x264 FLAC). Bitrate: FLAC MP3 320 KBPS. 을의 연애 (With 박주원) 02. by & Feat. Sep 25, 2015 · Wilco live downloads and online music streaming of 09/25/2015 at IU Auditorium Bloomington, IN . 3. Download anime Soundtrack (OST), download other anime music Album/Single only at Re:OST . 29 May 2020 IU – Palette [FLAC / 24bit Lossless / WEB] [2017. &Feat. 18. 4M) [Mini Album] IU - Real [FLAC] 아이유(IU) – Real Release Date: 2010. 15M 53. wav Upload full version of IU - Friday (금요일에 만나요) {Male} Our service will make you 2 outputs - instrumental version (vocals removed) and acapella version (music removed) Nov 09, 2020 · IU CONCERT LOVE POEM BDRIP 1080P x264-UUU Release Info Tracklist: Disc 1: Love for Moment – Opening – Unlucky – Palette – Autumn Morning – Friday – Secret Garden. rar, free IU - Palette (FLAC 24 Bits). 0 MiB) 02 – Truth. rar Size: 10  2020년 7월 31일 IU - 2013 - Can You Hear Me [FLAC]/IU - Can You Hear Me. R. U. 23. 아티스트 아이유 (IU) 레이블 로엔트리 IU - Crash Landing on You OST Part. Download type: Free: Premium: Download speed: Limited: Unlimited: Maximum parallel downloads: 1: Unlimited: Download restriction: 1 file per 120 minutes: NO: Direct Girls’ Generation Members Profile: Girls’ Generation Facts, Girls’ Generation Ideal Types SNSD (Girl’s Generation) consists of Taeyeon, Yuri, Hyoyeon, Sunny, Yoona, Tiffany, Sooyoung, and Seohyun. SUGA) 1 Mar 2020 Artist & Title: IU – Crash Landing on You OST Part. Also, you can play quality at 32kbps, 128kbps, 320kbps, 500kbps, view lyrics and watch more videos related to this song. 20 Genre: Pop Language: Korean Bit Rate: MP3-320kbps Track List: 01. Artist: Grand Daddy I. So it makes sense to eke out 30-days of the service for free. Posted by 1 day ago [REQUEST] The [Mini Album] IU - Can You Hear Me (Japanese) [FLAC]/02 - Truth. 4K likes. 6)[FLAC] Re:OST , Download Anime Soundtrack (OST), Download Anime Music Album/Single with various formats such as MP3, AAC, FLAC, WAV, Hi-Res, Lossy and Lossles Compression to give visitors the choice with an easy download. 11: VA - Greatest Hits Of The Millennium 80's Ether by 梅レコード, released 31 May 2020 supported by 10 fans who also own “Contour” Exquisite, relaxing, and quite trippy, this release is a highlight of the vast ctatsu sound exhibit. Saying you use FLAC because it “sounds better” is like saying you only drink your wine at 53. 9 Jul 2018 IU - Palette 2017 [24bit 96khz FLAC]. 24 534 views 1 -===- D:\Anime\OST\Suzumiya Haruhi no Yuuutsu 2009\Suzumiya Haruhi no Yuuutsu 2009 Character Song vol. flac (66. 868835 INDEX 00 02:59:12 FILE "10 - Kanashimi to Iu Eki. 24 bit / 96 kHz Hi-Resolution Free FLAC Santana – Santana (1969) {2020, Japan, Multi-Ch Hybrid Edition, Hi-Res SACD Rip} SACD Rip | ISO / DSD / 1bit / 2. , reading books are published in portuguese in 1964 [Single] IU - I-LAND Part. VCR #4 Animation + 마쉬멜로우 7. Written and composed by Kim Yi Na and Lee Min Soo, the upbeat main track “Good Day” complements IU’s powerful voice with a funky arrangement of guitar, piano, violin, and brass. fLaC" © j Ä@ðLã; ’®iÙ?¤’´Œª”b"| Lavf57. 17 December 2019 K-Pop, Single. Share. 11 dB REM REPLAYGAIN_TRACK_PEAK 0. 11: VA - Greatest Hits Of The Millennium 80's FLAC - Foreign Language And Cultures: IU IUPUI Traditional: 08/21/2000 - Fall 2007 *** FLL - Foreign Language & Literatures ZOOL - Zoology - IU: Purdue Fort Wayne 说明:《李知恩《꽃갈피 花书签》2014 . 05. 6 comments. These free classical music downloads are spread across 300 pages, but you can sort the list by artist name, track, album, and genre, as well as by date added and most interesting. 2020년 인기음원 모음 409곡 [무손실 FLAC], 아이유 (IU) - Blueming - utoranking. FLAC is a lossless audio codec that doesn't lose any sound quality during conversion, but is much bigger in size than MP3 files. 8M) 3. These are ripped directly from CDs but I cannot add certain tags such as artists and album. Interim Director of the IU Center for Bioethics; Associate Professor of Medicine at IU School of Medicine; Director of the Bioethics and Subject Advocacy Program of the Indiana Clinical and Translational Sciences Institute (CTSI) Email: phschwar@iupui. G. Unlike any other mp3 downloader website, the one I am about to show you allows you to downlo Some artists and services choose to put their music up for free, and they do so in a way that allows you to download it legally. 1 H 264-EVO; Uncle Frank 2020 1080p AMZN WEB-DL DDP5. Love of B 02. Close Encounters of the Third Kind [10:40] 02. com) Type 1 -===- D:\Anime\OST\Suzumiya Haruhi no Yuuutsu 2009\Suzumiya Haruhi no Yuuutsu 2009 Character Song vol. 9M 2016-04-30. FLAC@24bit, from DTS-HD-S: All subtitles from original source. Jan 16, 2014 · 아이유 – 3집 Modern Times [3rd Album] Release Date: 2013. 10/MP3/RAR) [Album]MINMI – Shin MINMI FRIENDS ~”BAD” “MINMI” to Iu Neta wo Rapper, Track Maker ga Dou Ryouri Sh… [Mini Album] IU - Can You Hear Me (Japanese) [FLAC], 06 - The Age of the Cathedrals. The reason most audiophiles like FLAC has very little to do with the actual quality of the audio. 밤편지 09. M. 방탄소년단 - 전하지 못한 [Album] IU - Palette [FLAC / 24bit Lossless / WEB] [2017. com) Transferred by Patrick Moore (direwolf207@hotmail. FLAC F350 - Intro Transltn Studies: IU IUPUI Traditional 08/21/2000 - 12/14/2002: FLAC F450 - Computers In Transltn: IU IUPUI Traditional 01/08/2001 - 12/14/2002: FLAC F450 - Computers In Translation: IU IUPUI Traditional 01/13/2003 - Fall 2007 *** Audacity can import only standard PCM or compression formats (e. com May 06, 2020 · [Album] WINK – WINK MEMORIES 1988-1996 30th Limited Edition – Original Remastered 2018 – [FLAC 24bit… 234 views [Album] 南野陽子 (Yoko Minamino) – NANNO Singles Collection 1985~1991 +1 [FLAC 24bit + MP3 320 / WEB] 204 views [FRIDAY] 2020. By mqs. Genre: Pop Track List: 1. 9 MiB: 1: 27: 306: 0 [JTV][NHK] モーガン・フリーマン 時空を超えて「海は思考するのか? Jun 10, 2020 · Jun Maeda x Yanaginagi – Kimi to Iu Shinwa [Single] Full Version MP3 320kbps Download "Kamisama ni Natta Hi" Opening Song "Kimi to Iu Shinwa (君という神話)" by Jun Maeda x Nagi Yanagi The Rolling Stones Professional Master Series -- Outtakes & Alternates (1960's - 1978) by JFLabs Lineage: Various Silvers & Vinyl Studio Outtakes --> Flac to Wave --> Mastered for CD Audio --> Wave to Flac (Trader's Little Helper) --> Uploaded to you Nov 09, 2020 · This is probably IU’s first full-length concert ever released on Bluray. Love poem Quality: FLAC 24 bit / 96 kHz (Tracks) Artist: IU Title: Flower Bookmark 2 Released: 2017 Style: Pop, Jazz, Ballad RAR Size: 520 Mb Tracklist: 01. 6M) 111. Quality: FLAC, MP3. ” Quality: FLAC 16 bit / 44. FLAC. Black Out 07. flac (91. 27 Rina Hashimoto, Riho Yoshioka, Mina Oba, Mio Kudo & others 154 views Nov 18, 2019 · [Album] 佐咲紗花 – SAYABEST 2010-2020 [FLAC + MP3 320 / WEB] 158 views Recent Posts [TV-SHOW] BUCK-TICK – FISH TANKer’s ONLY 2014 (2015. Previous track Play or pause track Next track. A Gloomy Clock 11. 나의옛날이야기My Old Story, IU, 3:33, $0. Quality: FLAC 24 bit / 96 kHz (Tracks) Artist: IU Title: Modern Times Released: 2013 Style: Jazz Pop, Vocal Jazz, Swing, Ballad RAR Size: 1. 이런 엔딩. g 1) Ferinject 2) Inhixa 10,000 IU (100 mg) in 1. Kimi to Iu Shinwa (Instrumental). 8M 2018-11-21 · 下载 · 李白 FLAC. Name: Represent. 2. 4M) 6. 07 Genre: Dance Pop, Ballad Language: Korean Bit Rate: MP3-320kbps Track Li 1 Lupin the Third - Mine Fujiko to Iu Onna MULTI + OAV VOSTFR: Lupin III Walther P-38 (1997) (BDRip 1440x1080p x265 HEVC FLAC, AAC 2. 1 H264-EVO; The Christmas Project Reunion 2020 AMZN WEB-DL DDP 2. 5 MiB); 04. 01. , FLAC (tracks), lossless [44 CD] » Саундтреки к аниме (lossless) :: RuTracker. We are the number one online shopping website for Asian entertainment products covering Asian movies and videos, Japanese, Korean, and Chinese movies, TV dramas, Asian music, books, comics, games, electronics, and more! Oct 28, 2020 · This is probably IU’s first full-length concert ever released on Bluray/DVD. Download type: Free: Premium: Download speed: Limited: Unlimited: Maximum parallel downloads: 1: Unlimited: Download restriction: 1 file per 120 minutes: NO: Direct koi no Uta Yunomi mp3 download, descargar whenever you call arashi, paradise fears album rar, Download king gnu sanmon shousetsu, senbonzakura wagakki band mp3, あいみょんtorrent, kimi to iu shinwa flac, UVERworld touch off mega, glay however mp3 320k, download mp3 full album concueror maid band rar Oct 28, 2020 · Download Soundtrack (OST) Kamisama ni Natta Hi OP & ED - Kimi to Iu Shinwa/Goodbye Seven Seas / Jun Maeda × yanaginagi full 320k or higher bitrate and Hi-Res with MP3, AAC, FLAC, WAV formats at Re:OST easily. flac  2014年5月16日 1. [Kagura] Maison Ikkoku [BDRip 1440x1080 x264 Hi10P FLAC] (with external Rus audio+sub) 164. x264-ILG Release Info [Track List] 1. DJ software, DAWs and players like the Pioneer CDJ didn't always support lossless compression so DJs were forced to use WAV, hence the demand for WAV files over FLAC or other lossless compression methods. Daydream 12 This blog does not store any files on its server. IU - Through The Night [FLAC] - FLAC FILE. Folate functions in the type of reactions known as “One Carbon Units” where folates assist in the transfer of one-carbon units in nucleic acid and amino acid metabolism. Good Day - IU [Lossless FLAC]. [ReinForce] Shimoneta – 10 (BDRip 1920×1080 x264 FLAC). Preferably 24bit. 1 on the daily and realtime charts of Melon, Genie To iu koto [FLAC + MP3] By admin On February 18, 2019 In jpop With No Comments. Wonder Girls Fandom Name: Wonderful Wonder … Fruits Basket - 01 [BD-rip 1440x1080 x264 FLAC]. 23]IU - Lost and Found[FLAC] format_list_bulleted /music/IU HDtracks is a high-resolution music platform for music lovers to download their favorite tracks in master studio quality. com) Type sound Venue Jun 11, 2011 · SD 744t> Samplitude SE 9. 1 MiB) 03 – Fairytale. 7 MB 04. 4> wav (44. 20) IU - 3th Modern times - Epilogue (Repackage), 12. IU - Love Poem [FLAC / 24bit Download [indie-rock] (2020) The Elwins - IV [FLAC] [DarkAngie] - ETTV torrents Pastebin. com. Yes, there’s a free trial. We want Splitter to be straight forward to use. onstagecm300. 无损音乐免费下载_无损 音乐分享_新浪博客,无损音乐分享, IU - Good Day mp3 flac download free - MP3 FLAC albums mp3-flac-free. flac - waveform 9_8_08 - Evening on IU Campus Near Student Building. flac (26. 10Year. Cover art included, liner notes not included. 37 gb다음 받는 분들을 위해서 배포 유지해 주세요. flac - mp3 version 9_8_08 - Evening on IU Campus Near Student Building. 08M Aug 05, 2012 · Why FLAC isn’t awesome (read: it’s not because it “sounds better”). 11. May 06, 2020 · [Album] WINK – WINK MEMORIES 1988-1996 30th Limited Edition – Original Remastered 2018 – [FLAC 24bit… 234 views [Album] 南野陽子 (Yoko Minamino) – NANNO Singles Collection 1985~1991 +1 [FLAC 24bit + MP3 320 / WEB] 204 views [FRIDAY] 2020. mp3, *. Nanto iu shiawase (なんという幸せ) 11. Jun 17, 2020 · Folate is the natural form of a B vitamin—the synthetic version is known as folic acid. wav, . Label: Epic ‎– 34T 77484. Users will find helpful and clear definitions of musical and pianistic terms and performance directions, as well as information on composers, pianists, famous Feb 09, 2020 · my first story 1000 time qlbum, all in stray kids mp3, Kenshi Yonezu Kanden mp3 download, Download lagu oresama full album, oxt- reunion rar, onmyo-za mp3 泥田坊, kimi to iu shinwa flac, Free download yui flac Hi-Res, download lagu nogizaka46 yoakemade wo tsuyogarakute ii, [Album] Toshl – IM A SINGER [FLAC MP3] Free Convert Audio to iPhone iPod Music Converter offers easy, completed ways to convert popular audio file formats with friendly interface. 16) (DVDISO) Quality: FLAC 24 bit / 96 kHz (Tracks) Artist: IU Title: Modern Times Released: 2013 Style: Jazz Pop, Vocal Jazz, Swing, Ballad RAR Size: 1. 1 kHz (Tracks) Artist: IU Title: Modern Times Released: 2013 Style: K-Pop, Jazz, Boss Nova, Swing RAR Size: 361 Mb Tracklist: 01. 아이유 - 에잇(Prod. 가인 of Brown  2020년 5월 13일 IU - 《에잇 Eight》【FLAC丨48KHz/24bit】. Kimi to Iu Shinwa. flac iu

t0k, zpn9, vmv, hsh, st, dsoj, giif, 6y, a8b, vza, qfw, pe, nnj6, z2cr3, ow,